Registruotis | 
Dabar naršo: 0 vartotojų ir 95 svečiai
Media

Slim - Drummatic Winds

Stilius: Drum & Bass
Trukmė: 01:02:36
Įrašytas: 2009 Vasario 10
Įvertinimas:
Balsavo: 18. Viso balų: 8090 (4,44).

Kūriniai:
Snow Patrol - Open Your Eyes (Marky & Bungle remix)
Common - The Light (Brookes Brothers Remix)
LAOS - Beautiful
BCee & Lomax - One Year On
Ghostface Killa - Back Like Dat (Dj Marky & Bungle Remix)
Logistics - West Country
Dramatic - Moving Close
Bazeado - Segunda Feira (Bungle remix)
Logistics - Reality Checkpoint
Lomax & Bcee - Outlaw
Stereotype - One More Try
Stevie Wonder - your love (greenfly remix)
Sardi - Still In My Mind

Drummatic Winds - nesibaigenčių šiltų melodijų, laužytų ritmų bei vokalų gauja. Čia turbūt kiekvienas gali rast kažką sau.

Komentarai

  • Emilio
    Emilio @ 2011 Gegužės 10, 03:50

    +++++++++++++++++++++++++++++++++++++++++++++++++++++++++++++++++++++++++++++++++ ir +

    +1  0
  • Martinsonas
    Martinsonas @ 2010 Balandžio 25, 10:54

    šitame sete nebuvo nei vienos dainos, kurios nebučiau perklauses kelis šimtus kartu :) keep it up!

    +1  0
  • Vidas.
    Vidas. @ 2010 Balandžio 02, 09:05

    Geras, labai geras.

    +1  0
  • chikuraku
    chikuraku @ 2010 Sausio 12, 11:52

    Puikus muzika,puiku viskas:) iš ryto pasiklausau,labai gerai dienai nuteikia:}

    +1  0
  • džeikob petravič
    džeikob petravič @ 2010 Sausio 06, 02:34

    Pozityvus, gerai sudėtas set'as;D ir man asmeniškai pavasarį primena

    +1  0
  • Gintaras-gb
    Gintaras-gb @ 2009 Gegužės 31, 12:41

    Nerealu!.. Aciu ;)
    Tikiuos nesupyks autorius ir neuzsitrauksiu vietiniu rustybes uz spama....bet cia patogesniam megavimuisi
    CUE SHEETAS:

    PERFORMER "Slim"
    TITLE "Drummatic Winds"
    FILE "Slim-drummaticWinds.mp3" MP3
    TRACK 01 AUDIO
    TITLE "Open Your Eyes (Marky & Bungle remix)"
    PERFORMER "Snow Patrol"
    INDEX 01 00:00:00
    TRACK 02 AUDIO
    TITLE "The Light (Brookes Brothers Remix)"
    PERFORMER "Common"
    INDEX 01 05:28:60
    TRACK 03 AUDIO
    TITLE "Beautiful"
    PERFORMER "LAOS"
    INDEX 01 09:09:34
    TRACK 04 AUDIO
    TITLE "One Year On"
    PERFORMER "BCee & Lomax"
    INDEX 01 14:34:69
    TRACK 05 AUDIO
    TITLE "Back Like Dat (Dj Marky & Bungle Remix)"
    PERFORMER "Ghostface Killa"
    INDEX 01 19:21:65
    TRACK 06 AUDIO
    TITLE "West Country"
    PERFORMER "Logistics"
    INDEX 01 24:28:06
    TRACK 07 AUDIO
    TITLE "Moving Close"
    PERFORMER "Dramatic"
    INDEX 01 28:08:57
    TRACK 08 AUDIO
    TITLE "Segunda Feira (Bungle remix)"
    PERFORMER "Bazeado"
    INDEX 01 32:33:44
    TRACK 09 AUDIO
    TITLE "Reality Checkpoint"
    PERFORMER "Logistics"
    INDEX 01 38:08:58
    TRACK 10 AUDIO
    TITLE "Outlaw"
    PERFORMER "Lomax & Bcee"
    INDEX 01 43:02:43
    TRACK 11 AUDIO
    TITLE "One More Try"
    PERFORMER "Stereotype"
    INDEX 01 48:00:37
    TRACK 12 AUDIO
    TITLE "your love (greenfly remix)"
    PERFORMER "Stevie Wonder"
    INDEX 01 53:20:33
    TRACK 13 AUDIO
    TITLE "Still In My Mind"
    PERFORMER "Sardi"
    INDEX 01 57:45:24

    +1  0
  • slim
    slim @ 2009 Gegužės 22, 03:51

    wow oO
    Ačiu, labai malonu girdeti :)

    0  0
  • /Tomas/
    /Tomas/ @ 2009 Gegužės 16, 07:48

    Tikriausiai geriausias lietuviskas dramo setas koki esu girdejas. nice

    +1  0
  • oxygen
    oxygen @ 2009 Gegužės 11, 09:00

    geras lengvas d'n'b

    0  0
  • /Tomas/
    /Tomas/ @ 2009 Gegužės 06, 01:22

    nice :) patiko

    0  0
Komentuoti gali tik registruoti, ir neapriboti vartotojai.